找回密码
 注册超级帐号

QQ登录

只需一步,快速开始

搜索

本文来自

周杰伦1080Pmv下载

周杰伦1080Pmv下载

4 人已关注

周杰伦1080P/720P级超清视频下载

今日热帖

[1080P] 周杰伦 - 窃爱[1080P/MP4/103M]

  [复制链接]

 成长值: 4560

5436464 嘻哈卓别伦 VIP会员 永久VIP资源区版主)发表于 2016-5-10 09:39:46

  1. General
  2. Complete name                  : 周杰伦 - 窃爱(1080P).mp4
  3. Format                         : MPEG-4
  4. Format profile                 : Base Media
  5. Codec ID                       : isom (isom/iso2/avc1/mp41)
  6. File size                      : 103 MiB
  7. Duration                       : 3mn 24s
  8. Overall bit rate               : 4 231 Kbps
  9. Writing application            : Lavf57.29.101

  10. Video
  11. ID                             : 1
  12. Format                         : AVC
  13. Format/Info                    : Advanced Video Codec
  14. Format profile                 : High@L4
  15. Format settings, CABAC         : Yes
  16. Format settings, ReFrames      : 2 frames
  17. Codec ID                       : avc1
  18. Codec ID/Info                  : Advanced Video Coding
  19. Duration                       : 3mn 24s
  20. Bit rate                       : 4 098 Kbps
  21. Width                          : 1 920 pixels
  22. Height                         : 1 080 pixels
  23. Display aspect ratio           : 16:9
  24. Frame rate mode                : Constant
  25. Frame rate                     : 29.970 (30000/1001) fps
  26. Color space                    : YUV
  27. Chroma subsampling             : 4:2:0
  28. Bit depth                      : 8 bits
  29. Scan type                      : Progressive
  30. Bits/(Pixel*Frame)             : 0.066
  31. Stream size                    : 100 MiB (97%)
  32. Color range                    : Limited
  33. Color primaries                : BT.709
  34. Transfer characteristics       : BT.709
  35. Matrix coefficients            : BT.709

  36. Audio
  37. ID                             : 2
  38. Format                         : AAC
  39. Format/Info                    : Advanced Audio Codec
  40. Format profile                 : LC
  41. Codec ID                       : 40
  42. Duration                       : 3mn 24s
  43. Bit rate mode                  : Constant
  44. Bit rate                       : 126 Kbps
  45. Channel(s)                     : 2 channels
  46. Channel positions              : Front: L R
  47. Sampling rate                  : 44.1 KHz
  48. Frame rate                     : 43.066 fps (1024 spf)
  49. Compression mode               : Lossy
  50. Stream size                    : 3.07 MiB (3%)
  51. Default                        : Yes
  52. Alternate group                : 1
复制代码
周杰伦窃爱1080P完整版MV下载:
百度网盘下载:
游客,如果您要查看本帖隐藏内容请回复开通VIP全站免回复下载。


360云盘下载:
游客,如果您要查看本帖隐藏内容请回复开通VIP全站免回复下载。

本帖子中包含更多资源

您需要 登录 才可以下载或查看,没有帐号?注册超级帐号

x

评分

参与人数 3金钱 +3 收起 理由
mvp + 1 无意义回复
火腿 + 1 很给力!
jay2015 + 1 很给力!

查看全部评分




上一篇:周杰伦 - 天台的月光[1080P/MP4/58M]
下一篇:周杰伦 - 前世情人(2016新歌)[1080P/MP4/93M]
回复

使用道具 举报

jacky130142 (Lv.1 Jay)发表于 2016-12-26 13:36:33
周杰伦周杰伦周杰伦周杰伦周杰伦周杰伦周杰伦周杰伦周杰伦周杰伦周杰伦周杰伦周杰伦周杰伦周杰伦周杰伦周杰伦周杰伦周杰伦周杰伦周杰伦周杰伦周杰伦周杰伦周杰伦周杰伦周杰伦周杰伦周杰伦周杰伦周杰伦周杰伦周杰伦周杰伦周杰伦周杰伦周杰伦周杰伦周杰伦周杰伦
回复 支持 反对

使用道具 举报

yinjinjie0320 (Lv.3 八度空间)发表于 2016-11-16 16:16:30
周杰伦周杰伦周杰伦周杰伦周杰伦周杰伦周杰伦周杰伦周杰伦周杰伦周杰伦周杰伦周杰伦周杰伦周杰伦周杰伦周杰伦周杰伦周杰伦周杰伦周杰伦周杰伦周杰伦周杰伦周杰伦周杰伦周杰伦周杰伦周杰伦周杰伦周杰伦周杰伦周杰伦周杰伦周杰伦周杰伦周杰伦周杰伦周杰伦周杰伦
回复 支持 反对

使用道具 举报

yinjinjie0320 (Lv.3 八度空间)发表于 2016-11-16 16:15:58
周杰伦周杰伦周杰伦周杰伦周杰伦周杰伦周杰伦周杰伦周杰伦周杰伦周杰伦周杰伦周杰伦周杰伦周杰伦周杰伦周杰伦周杰伦周杰伦周杰伦周杰伦周杰伦周杰伦周杰伦周杰伦周杰伦周杰伦周杰伦周杰伦周杰伦周杰伦周杰伦周杰伦周杰伦周杰伦周杰伦周杰伦周杰伦周杰伦周杰伦
回复 支持 反对

使用道具 举报

415936992 (Lv.1 Jay)发表于 2016-5-10 10:25:25
终于找到了😁
回复 支持 反对

使用道具 举报

4839713 (Lv.1 Jay)发表于 2016-5-10 10:37:23
期待这首歌曲的MV
回复 支持 反对

使用道具 举报

4839713 (Lv.1 Jay)发表于 2016-5-10 10:37:29
期待这首歌曲的MV
回复 支持 反对

使用道具 举报

4839713 (Lv.1 Jay)发表于 2016-5-10 10:37:30
期待这首歌曲的MV
回复 支持 反对

使用道具 举报

4839713 (Lv.1 Jay)发表于 2016-5-10 10:37:42
期待这首歌曲的MV
回复 支持 反对

使用道具 举报

我爱巴萨 (Lv.2 范特西)发表于 2016-5-10 10:43:39
帅帅帅大大大大说的
回复 支持 反对

使用道具 举报

fengfeng (Lv.5. 七里香)发表于 2016-5-10 10:57:34
哈哈哈哈哈哈哈哈哈哈哈哈哈
回复 支持 反对

使用道具 举报

梦龙 (Lv.2 范特西)发表于 2016-5-10 11:13:12
阿萨德撒打算打算
回复 支持 反对

使用道具 举报

丧失特大号 (Lv.3 八度空间)发表于 2016-5-10 12:38:25
哈哈  终于等到MV出来了
回复 支持 反对

使用道具 举报

您需要登录后才可以回帖 登录 | 注册超级帐号

本版积分规则

快速回复 返回顶部 返回列表