找回密码
 注册超级帐号

QQ登录

只需一步,快速开始

搜索

本文来自

周杰伦1080Pmv下载

周杰伦1080Pmv下载

4 人已关注

周杰伦1080P/720P级超清视频下载

今日热帖

[1080P] 周杰伦 - Now You See Me(惊天魔盗团2主题曲)120秒[1080P/MP4/63M]

  [复制链接]

 成长值: 4520

167061135 嘻哈卓别伦 VIP会员 永久VIP资源区版主)发表于 2016-6-1 09:40:49

【资源下载】周杰伦惊天魔盗团2主题曲1080PMV下载

资源网盘:
百度网盘 360云盘 
歌曲名称:
Now You See Me
歌曲专辑:
惊天魔盗团2电影原声带
发布时间:
2016-06-01
资源格式:
MP4
资源大小:
63M
资源码率:
4241Kpbs
分 辨 率 :
1920x1080
资源时长:
2分
资源类型:
所有音乐视频,本网站没有参与录制发行工作,仅供学习交流试听之用,版权归唱片公司所有。如有侵权请联系admin@jaycj.com





文件属性
  1. General
  2. Complete name                  : [z.JayCJ.com]周杰伦 - Now You See Me(120s).mp4
  3. Format                         : MPEG-4
  4. Format profile                 : Base Media
  5. Codec ID                       : isom (isom/iso2/avc1/mp41)
  6. File size                      : 63.1 MiB
  7. Duration                       : 2mn 4s
  8. Overall bit rate               : 4 241 Kbps
  9. Writing application            : Lavf57.29.101

  10. Video
  11. ID                             : 1
  12. Format                         : AVC
  13. Format/Info                    : Advanced Video Codec
  14. Format profile                 : High@L4
  15. Format settings, CABAC         : Yes
  16. Format settings, ReFrames      : 2 frames
  17. Codec ID                       : avc1
  18. Codec ID/Info                  : Advanced Video Coding
  19. Duration                       : 2mn 4s
  20. Bit rate                       : 4 112 Kbps
  21. Width                          : 1 920 pixels
  22. Height                         : 1 080 pixels
  23. Display aspect ratio           : 16:9
  24. Frame rate mode                : Constant
  25. Frame rate                     : 24.000 fps
  26. Color space                    : YUV
  27. Chroma subsampling             : 4:2:0
  28. Bit depth                      : 8 bits
  29. Scan type                      : Progressive
  30. Bits/(Pixel*Frame)             : 0.083
  31. Stream size                    : 61.2 MiB (97%)
  32. Color range                    : Limited
  33. Color primaries                : BT.709
  34. Transfer characteristics       : BT.709
  35. Matrix coefficients            : BT.709

  36. Audio
  37. ID                             : 2
  38. Format                         : AAC
  39. Format/Info                    : Advanced Audio Codec
  40. Format profile                 : LC
  41. Codec ID                       : 40
  42. Duration                       : 2mn 4s
  43. Bit rate mode                  : Constant
  44. Bit rate                       : 126 Kbps
  45. Channel(s)                     : 2 channels
  46. Channel positions              : Front: L R
  47. Sampling rate                  : 44.1 KHz
  48. Frame rate                     : 43.066 fps (1024 spf)
  49. Compression mode               : Lossy
  50. Stream size                    : 1.87 MiB (3%)
  51. Default                        : Yes
  52. Alternate group                : 1
复制代码


周杰伦惊天魔盗团2主题曲1080PMV(附MP3)下载地址

  1. 由于版权方投诉,已经停止下载!
复制代码



本帖子中包含更多资源

您需要 登录 才可以下载或查看,没有帐号?注册超级帐号

x

评分

参与人数 2金钱 +21 贡献 +3 收起 理由
苏合香榭 + 1 很给力!
官爷v587 + 20 + 3 很给力!

查看全部评分




上一篇:周杰伦 - 前世情人(2016新歌)[1080P/MP4/93M]
下一篇:周杰伦 - 窃爱(无字幕)[1080P/TS/204M]
回复

使用道具 举报

官爷v587 VIP会员 永久VIP管理员)发表于 2016-6-30 12:01:23
周杰伦 - Now You See Me(惊天魔盗团2主题曲)120秒[1080P/MP4/63M]:http://z.jaycj.com/bbs/71/t2306/
回复 支持 反对

使用道具 举报

匿名  发表于 2016-6-3 17:57:27
General
Complete name                  : [z.JayCJ.com]周杰伦 - Now You See Me(120s).mp4
Format                         : MPEG-4
Format profile                 : Base Media
Codec ID                       : isom (isom/iso2/avc1/mp41)
File size                      : 63.1 MiB
Duration                       : 2mn 4s
Overall bit rate               : 4 241 Kbps
Writing application            : Lavf57.29.101

Video
ID                             : 1
Format                         : AVC
Format/Info                    : Advanced Video Codec
Format profile                 : High@L4
Format settings, CABAC         : Yes
Format settings, ReFrames      : 2 frames
Codec ID                       : avc1
Codec ID/Info                  : Advanced Video Coding
Duration                       : 2mn 4s
Bit rate                       : 4 112 Kbps
Width                          : 1 920 pixels
Height                         : 1 080 pixels
Display aspect ratio           : 16:9
Frame rate mode                : Constant
Frame rate                     : 24.000 fps
Color space                    : YUV
Chroma subsampling             : 4:2:0
Bit depth                      : 8 bits
Scan type                      : Progressive
Bits/(Pixel*Frame)             : 0.083
Stream size                    : 61.2 MiB (97%)
Color range                    : Limited
Color primaries                : BT.709
Transfer characteristics       : BT.709
Matrix coefficients            : BT.709

Audio
ID                             : 2
Format                         : AAC
Format/Info                    : Advanced Audio Codec
Format profile                 : LC
Codec ID                       : 40
Duration                       : 2mn 4s
Bit rate mode                  : Constant
Bit rate                       : 126 Kbps
Channel(s)                     : 2 channels
Channel positions              : Front: L R
Sampling rate                  : 44.1 KHz
Frame rate                     : 43.066 fps (1024 spf)
Compression mode               : Lossy
Stream size                    : 1.87 MiB (3%)
Default                        : Yes
Alternate group                : 1
回复 支持 反对

使用道具

匿名  发表于 2016-6-11 11:09:06
General
Complete name                  : [z.JayCJ.com]周杰伦 - Now You See Me(120s).mp4
Format                         : MPEG-4
Format profile                 : Base Media
Codec ID                       : isom (isom/iso2/avc1/mp41)
File size                      : 63.1 MiB
Duration                       : 2mn 4s
Overall bit rate               : 4 241 Kbps
Writing application            : Lavf57.29.101
回复 支持 反对

使用道具

manco (Lv.1 Jay)发表于 2016-8-6 01:26:28
参与人数 4        金钱 +5        收起理由
yefengling        + 1        赞一个!
安非他命        + 1        很给力!
kevinlyy        + 2        很给力!
57pick        + 1        很给力!
查看全部评分
分享到:QQ空间新浪微博腾讯微博人人网微信
回复 支持 反对

使用道具 举报

524838518 (Lv.4 叶惠美)发表于 2016-6-1 10:11:29
好东西好东西好东西
回复 支持 反对

使用道具 举报

lm910 (Lv.3 八度空间)发表于 2016-6-1 10:17:26
好东西  要支持
回复 支持 反对

使用道具 举报

jayc0113 (Lv.1 Jay)发表于 2016-6-1 10:24:17
谢谢 下载了~!!!谢谢 谢谢
回复 支持 反对

使用道具 举报

jayc0113 (Lv.1 Jay)发表于 2016-6-1 10:24:39
谢谢 下载了~!!!谢谢 谢谢
回复 支持 反对

使用道具 举报

jayc0113 (Lv.1 Jay)发表于 2016-6-1 10:24:41
谢谢 下载了~!!!谢谢 谢谢
回复 支持 反对

使用道具 举报

菜头蛋丸子 (Lv.2 范特西)发表于 2016-6-1 10:39:44
好东西啊  谢谢
回复 支持 反对

使用道具 举报

♂天涯过客♀ (Lv.5. 七里香)发表于 2016-6-1 10:50:07
谢谢楼主的分享...
回复 支持 反对

使用道具 举报

♂天涯过客♀ (Lv.5. 七里香)发表于 2016-6-1 10:50:15
谢谢楼主的分享...
回复 支持 反对

使用道具 举报

您需要登录后才可以回帖 登录 | 注册超级帐号

本版积分规则

快速回复 返回顶部 返回列表