找回密码
 注册超级帐号

QQ登录

只需一步,快速开始

搜索

本文来自

周杰伦高清KTV下载

周杰伦高清KTV下载

人已关注

周杰伦DVD级别高清KTV下载

今日热帖

[DVD] 周杰伦 - 免费教学录影带[KTV/MPG/203M]

[复制链接]

已抛锚 成长值: 558

67814 K歌之王 VIP会员资源区版主)发表于 2016-1-18 14:07:38

资源截图




歌曲介绍

周杰伦表示《免费教学录影带》是他在美国写的,由于拍电影太无聊,他就在拖车上休息,然后他听到一个外国人在弹吉他。周杰伦觉得挺特别,于是他就让那个外国人教他弹那段旋律,然后他就想那不如写一个免费教学的歌,于是他就创作了《免费教学录影带》这首歌。


资源编码

  1. General
  2. Complete name                    : E:\周杰伦\KTV4\[z.JayCJ.com]免费教学录影带(KTV).mpg
  3. Format                           : MPEG-PS
  4. File size                        : 203 MiB
  5. Duration                         : 4mn 21s
  6. Overall bit rate                 : 6 530 Kbps

  7. Video
  8. ID                               : 224 (0xE0)
  9. Format                           : MPEG Video
  10. Format version                   : Version 2
  11. Format profile                   : Main@Main
  12. Format settings, BVOP            : Yes
  13. Format settings, Matrix          : Default
  14. Format settings, GOP             : M=3, N=15
  15. Duration                         : 4mn 21s
  16. Bit rate mode                    : Constant
  17. Bit rate                         : 6 000 Kbps
  18. Width                            : 720 pixels
  19. Height                           : 480 pixels
  20. Display aspect ratio             : 4:3
  21. Frame rate                       : 29.970 fps
  22. Standard                         : NTSC
  23. Color space                      : YUV
  24. Chroma subsampling               : 4:2:0
  25. Bit depth                        : 8 bits
  26. Scan type                        : Interlaced
  27. Scan order                       : Top Field First
  28. Compression mode                 : Lossy
  29. Bits/(Pixel*Frame)               : 0.579
  30. Stream size                      : 185 MiB (91%)

  31. Audio #1
  32. ID                               : 192 (0xC0)
  33. Format                           : MPEG Audio
  34. Format version                   : Version 1
  35. Format profile                   : Layer 2
  36. Duration                         : 4mn 21s
  37. Bit rate mode                    : Constant
  38. Bit rate                         : 224 Kbps
  39. Channel(s)                       : 2 channels
  40. Sampling rate                    : 48.0 KHz
  41. Compression mode                 : Lossy
  42. Delay relative to video          : -67ms
  43. Stream size                      : 6.98 MiB (3%)

  44. Audio #2
  45. ID                               : 193 (0xC1)
  46. Format                           : MPEG Audio
  47. Format version                   : Version 1
  48. Format profile                   : Layer 2
  49. Duration                         : 4mn 21s
  50. Bit rate mode                    : Constant
  51. Bit rate                         : 224 Kbps
  52. Channel(s)                       : 2 channels
  53. Sampling rate                    : 48.0 KHz
  54. Compression mode                 : Lossy
  55. Delay relative to video          : -67ms
  56. Stream size                      : 6.98 MiB (3%)


复制代码


资源下载

周杰伦免费教学录影带扬声高清KTV下载

本资源由百度网盘、迅雷下载、旋风分享、360云盘提供下载支持

游客,如果您要查看本帖隐藏内容请回复开通VIP全站免回复下载。


本帖子中包含更多资源

您需要 登录 才可以下载或查看,没有帐号?注册超级帐号

x



上一篇:周杰伦 - 说了再见[KTV/MPG/220M]
下一篇:周杰伦&Lara - 蛇舞[KTV/MPG/98M]
回复

使用道具 举报

abcabcabc (Lv.6 十一月的萧邦)发表于 2016-10-1 00:47:20
: 周杰伦 - 免费教学录影带[KTV/MPG/203M] [修改]
回复 支持 反对

使用道具 举报

xinyu123 (Lv.3 八度空间)发表于 2016-11-28 20:47:01
可以洗版了,我以前有的版本不好,感谢版主分享
回复 支持 反对

使用道具 举报

大胡儿 (Lv.3 八度空间)发表于 2016-6-28 15:15:48
可以洗版了,我以前有的版本不好,感谢版主分享
回复 支持 反对

使用道具 举报

fooyu (Lv.6 十一月的萧邦)发表于 2016-1-18 18:08:02
免费教学录影带
回复 支持 反对

使用道具 举报

LEEE (Lv.6 十一月的萧邦)发表于 2016-1-20 00:41:56
周杰伦免费教学录影带扬声高清
回复 支持 反对

使用道具 举报

LEEE (Lv.6 十一月的萧邦)发表于 2016-1-20 00:43:09
周杰伦免费教学录影带扬声高清
回复 支持 反对

使用道具 举报

zergyyl (Lv.1 Jay)发表于 2016-1-21 05:58:43
周杰伦免费教学录影带扬声高清
回复 支持 反对

使用道具 举报

颓废是另一种美 (Lv.6 十一月的萧邦)发表于 2016-1-23 21:14:40
无与伦比为杰沉沦
回复 支持 反对

使用道具 举报

zimingww (Lv.2 范特西)发表于 2016-3-28 20:15:05
sdfgsd 佛山分公司大概是的
回复 支持 反对

使用道具 举报

zimingww (Lv.2 范特西)发表于 2016-3-28 20:15:34
sdfgsd 佛山分公司大概是的
回复 支持 反对

使用道具 举报

zhangpeiqian (Lv.1 Jay)发表于 2016-6-11 01:12:21
好好爱好爱好好啊
回复 支持 反对

使用道具 举报

zhangpeiqian (Lv.1 Jay)发表于 2016-6-11 01:12:38
好好爱好爱好好啊
回复 支持 反对

使用道具 举报

您需要登录后才可以回帖 登录 | 注册超级帐号

本版积分规则

快速回复 返回顶部 返回列表