找回密码
 注册超级帐号

QQ登录

只需一步,快速开始

搜索

本文来自

周杰伦高清KTV下载

周杰伦高清KTV下载

人已关注

周杰伦DVD级别高清KTV下载

今日热帖

[DVD] 周杰伦 - 烟花易冷[KTV/MPG/223M]

  [复制链接]

已抛锚 成长值: 524

106035 K歌之王 VIP会员资源区版主)发表于 2016-1-25 14:16:39

资源截图




歌曲介绍

烟花易冷》是由方文山作词,周杰伦作曲的一首歌。该曲歌词源于一个虚构的故事,而故事的背景是北魏时期杨炫之所著《洛阳伽蓝记》中描述的盛极繁华后倾塌颓圮的千年古都洛阳城。洛阳城中一名皇家将领因缘邂逅女子后,俩人一见钟情并且私定终身,此时将领却被朝廷征调至边境征战,在连年的兵荒马乱中,帝都洛阳已沦为废墟,残破不堪,最后女子苦守将领不遇后,落发为尼,待将领历经风霜归来寻至女子所出家的伽蓝古寺,她却早已过世。人们告诉将军,这里一直有一个女子在等他。周杰伦以这个背景故事为素材,创作了《烟花易冷》这首歌曲。


资源编码

  1. General
  2. Complete name                    : E:\周杰伦\KTV4\[z.JayCJ.com]烟花易冷(KTV).mpg
  3. Format                           : MPEG-PS
  4. File size                        : 223 MiB
  5. Duration                         : 4mn 32s
  6. Overall bit rate                 : 6 859 Kbps

  7. Video
  8. ID                               : 224 (0xE0)
  9. Format                           : MPEG Video
  10. Format version                   : Version 2
  11. Format profile                   : Main@Main
  12. Format settings, BVOP            : Yes
  13. Format settings, Matrix          : Default
  14. Format settings, GOP             : M=3, N=15
  15. Duration                         : 4mn 32s
  16. Bit rate mode                    : Constant
  17. Bit rate                         : 6 000 Kbps
  18. Width                            : 720 pixels
  19. Height                           : 480 pixels
  20. Display aspect ratio             : 4:3
  21. Frame rate                       : 29.970 fps
  22. Standard                         : NTSC
  23. Color space                      : YUV
  24. Chroma subsampling               : 4:2:0
  25. Bit depth                        : 8 bits
  26. Scan type                        : Interlaced
  27. Scan order                       : Top Field First
  28. Compression mode                 : Lossy
  29. Bits/(Pixel*Frame)               : 0.579
  30. Stream size                      : 193 MiB (87%)

  31. Audio #1
  32. ID                               : 192 (0xC0)
  33. Format                           : MPEG Audio
  34. Format version                   : Version 1
  35. Format profile                   : Layer 2
  36. Duration                         : 4mn 32s
  37. Bit rate mode                    : Constant
  38. Bit rate                         : 384 Kbps
  39. Channel(s)                       : 2 channels
  40. Sampling rate                    : 44.1 KHz
  41. Compression mode                 : Lossy
  42. Delay relative to video          : -67ms
  43. Stream size                      : 12.5 MiB (6%)

  44. Audio #2
  45. ID                               : 193 (0xC1)
  46. Format                           : MPEG Audio
  47. Format version                   : Version 1
  48. Format profile                   : Layer 2
  49. Duration                         : 4mn 32s
  50. Bit rate mode                    : Constant
  51. Bit rate                         : 384 Kbps
  52. Channel(s)                       : 2 channels
  53. Sampling rate                    : 44.1 KHz
  54. Compression mode                 : Lossy
  55. Delay relative to video          : -67ms
  56. Stream size                      : 12.5 MiB (6%)
复制代码


资源下载

周杰伦烟花易冷扬声高清KTV下载

本资源由百度网盘、迅雷下载、旋风分享、360云盘提供下载支持

游客,如果您要查看本帖隐藏内容请回复开通VIP全站免回复下载。


本帖子中包含更多资源

您需要 登录 才可以下载或查看,没有帐号?注册超级帐号

x

评分

参与人数 2金钱 +2 收起 理由
junkoo + 1 神马都是浮云
听说 + 1 赞一个!

查看全部评分




上一篇:周杰伦&Lara - 蛇舞[KTV/MPG/98M]
下一篇:周杰伦 - 皮影戏[KTV/MPG/165M]
回复

使用道具 举报

caipeiyuan (Lv.1 Jay)发表于 2016-2-10 10:05:49
回复 支持 反对

使用道具 举报

席小9 (Lv.4 叶惠美)发表于 2016-4-20 07:46:33
               烟花易冷
回复 支持 反对

使用道具 举报

majorp (Lv.1 Jay)发表于 2016-10-31 19:45:06

終於找到高清的版本..

趕緊下載謝謝大大的分享..
回复 支持 反对

使用道具 举报

颓废是另一种美 (Lv.6 十一月的萧邦)发表于 2016-1-25 18:26:18
谢谢楼主分享
回复 支持 反对

使用道具 举报

LEEE (Lv.6 十一月的萧邦)发表于 2016-1-26 00:48:43

谢谢楼主分享
回复 支持 反对

使用道具 举报

dqpylf (Lv.1 Jay)发表于 2016-2-11 19:55:10
非常 想看看
回复 支持 反对

使用道具 举报

何以慰别离 (Lv.3 八度空间)发表于 2016-2-13 17:17:07
喜欢喜欢喜欢喜欢喜欢喜欢
回复 支持 反对

使用道具 举报

何以慰别离 (Lv.3 八度空间)发表于 2016-2-13 17:17:56
喜欢喜欢喜欢喜欢喜欢喜欢
回复 支持 反对

使用道具 举报

alu (Lv.1 Jay)发表于 2016-2-23 19:51:32
哎呦,不错哦
回复 支持 反对

使用道具 举报

bushengbin19 (Lv.4 叶惠美)发表于 2016-2-27 13:46:01
周杰伦烟花易冷

看看还有木有资源了
回复 支持 反对

使用道具 举报

您需要登录后才可以回帖 登录 | 注册超级帐号

本版积分规则

快速回复 返回顶部 返回列表