找回密码
 注册超级帐号

QQ登录

只需一步,快速开始

搜索

本文来自

周杰伦高清KTV下载

周杰伦高清KTV下载

人已关注

周杰伦DVD级别高清KTV下载

今日热帖

[DVD] 周杰伦 - 皮影戏[KTV/MPG/165M]

[复制链接]

已抛锚 成长值: 525

142520 K歌之王 VIP会员资源区版主)发表于 2016-1-25 14:20:55

资源截图




歌曲介绍

皮影戏》的歌词时而文言时而诙谐,更加入现代的幽默口语;把皮影戏描写得惟妙惟肖,栩栩如生。《皮影戏》的编曲,从前奏以中国风的笛子声吹奏出西方的电子琴半音音阶,搭配电子琴的midi音乐拉开序幕,有种“皮皮”的感觉;后面更巧妙的将台湾古早味的民间走唱音乐与现代的电子花车音乐的元素融合一起,独特的台味节奏与古典的中国风非常饶富趣味;再加上嘻哈rap融合中国的五声音阶以及京剧唱法,到了间奏的时候,电子琴的弹奏却又变成了类似教会的圣歌弹奏方式,同一种乐器却弹奏出不同的风格,催化出神奇的音乐上的化学变化,到底是中国风?还是西洋风?无法被归类,却令人印象深刻。


资源编码

  1. General
  2. Complete name                    : E:\周杰伦\KTV4\[z.JayCJ.com]皮影戏(KTV).mpg
  3. Format                           : MPEG-PS
  4. File size                        : 166 MiB
  5. Duration                         : 3mn 33s
  6. Overall bit rate                 : 6 497 Kbps
  7. Writing library                  : encoded by TMPGEnc 4.0 XPress Version. 4.2.3.193

  8. Video
  9. ID                               : 224 (0xE0)
  10. Format                           : MPEG Video
  11. Format version                   : Version 2
  12. Format profile                   : Main@Main
  13. Format settings, BVOP            : Yes
  14. Format settings, Matrix          : Default
  15. Format settings, GOP             : M=3, N=16
  16. Duration                         : 3mn 33s
  17. Bit rate mode                    : Constant
  18. Bit rate                         : 6 000 Kbps
  19. Width                            : 720 pixels
  20. Height                           : 480 pixels
  21. Display aspect ratio             : 4:3
  22. Frame rate                       : 29.970 fps
  23. Standard                         : NTSC
  24. Color space                      : YUV
  25. Chroma subsampling               : 4:2:0
  26. Bit depth                        : 8 bits
  27. Scan type                        : Interlaced
  28. Scan order                       : Top Field First
  29. Compression mode                 : Lossy
  30. Bits/(Pixel*Frame)               : 0.579
  31. Stream size                      : 153 MiB (92%)
  32. Writing library                  : TMPGEnc XPress 4.2.3.193

  33. Audio #1
  34. ID                               : 192 (0xC0)
  35. Format                           : MPEG Audio
  36. Format version                   : Version 1
  37. Format profile                   : Layer 2
  38. Duration                         : 3mn 33s
  39. Bit rate mode                    : Constant
  40. Bit rate                         : 192 Kbps
  41. Channel(s)                       : 2 channels
  42. Sampling rate                    : 44.1 KHz
  43. Compression mode                 : Lossy
  44. Stream size                      : 4.89 MiB (3%)

  45. Audio #2
  46. ID                               : 193 (0xC1)
  47. Format                           : MPEG Audio
  48. Format version                   : Version 1
  49. Format profile                   : Layer 2
  50. Duration                         : 3mn 33s
  51. Bit rate mode                    : Constant
  52. Bit rate                         : 192 Kbps
  53. Channel(s)                       : 2 channels
  54. Sampling rate                    : 44.1 KHz
  55. Compression mode                 : Lossy
  56. Stream size                      : 4.89 MiB (3%)
复制代码


资源下载

周杰伦皮影戏扬声高清KTV下载

本资源由百度网盘、迅雷下载、旋风分享、360云盘提供下载支持

游客,如果您要查看本帖隐藏内容请回复开通VIP全站免回复下载。


本帖子中包含更多资源

您需要 登录 才可以下载或查看,没有帐号?注册超级帐号

x

评分

参与人数 1金钱 +2 收起 理由
听说 + 2 赞一个!

查看全部评分




上一篇:周杰伦 - 烟花易冷[KTV/MPG/223M]
下一篇:周杰伦 - 花海[KTV/MPG/148M]
回复

使用道具 举报

a312160263 (Lv.3 八度空间)发表于 2016-3-2 01:19:28
好  不错  加油
回复 支持 反对

使用道具 举报

a312160263 (Lv.3 八度空间)发表于 2016-3-2 01:19:23
好  不错  加油
回复 支持 反对

使用道具 举报

abcabcabc (Lv.6 十一月的萧邦)发表于 2016-9-20 16:07:12
周杰伦 - 皮影戏[KTV/MPG/165M] [修改]
回复 支持 反对

使用道具 举报

颓废是另一种美 (Lv.6 十一月的萧邦)发表于 2016-1-25 20:57:05
谢谢楼主分享
回复 支持 反对

使用道具 举报

颓废是另一种美 (Lv.6 十一月的萧邦)发表于 2016-1-25 20:57:32
谢谢楼主分享
回复 支持 反对

使用道具 举报

颓废是另一种美 (Lv.6 十一月的萧邦)发表于 2016-1-25 20:58:07
谢谢楼主分享
回复 支持 反对

使用道具 举报

fooyu (Lv.6 十一月的萧邦)发表于 2016-1-25 23:57:46
杰伦皮影戏
回复 支持 反对

使用道具 举报

LEEE (Lv.6 十一月的萧邦)发表于 2016-1-26 00:46:27

谢谢楼主分享
回复 支持 反对

使用道具 举报

匿名  发表于 2016-2-18 01:04:04
谢谢分享0000000
回复 支持 反对

使用道具

匿名  发表于 2016-2-18 01:04:10
谢谢分享0000000
回复 支持 反对

使用道具

匿名  发表于 2016-2-18 01:05:34
谢谢楼主分享  赞赞赞
回复 支持 反对

使用道具

MR--冉 (Lv.2 范特西)发表于 2016-2-18 01:10:00
谢谢楼主分享  赞赞赞
回复 支持 反对

使用道具 举报

您需要登录后才可以回帖 登录 | 注册超级帐号

本版积分规则

快速回复 返回顶部 返回列表