找回密码
 注册超级帐号

QQ登录

只需一步,快速开始

搜索

本文来自

周杰伦高清KTV下载

周杰伦高清KTV下载

人已关注

周杰伦DVD级别高清KTV下载

今日热帖

[DVD] 周杰伦&杨瑞代 - 流浪诗人[KTV/MPG/95M]

[复制链接]

已抛锚 成长值: 559

64910 K歌之王 VIP会员资源区版主)发表于 2016-2-28 17:00:11

资源截图




歌曲介绍

流浪诗人这首由周杰伦和杨瑞代以国台语对唱的蓝调小品,也是周杰伦在和费玉清男男对唱后 。先由周杰伦以国语唱著“我们都偏爱她的长发”;接著Gary杨瑞代以台语唱着;国台语互搭的合声,产生一种独特的风味,“远方回音 我们迎风边走边弹琴 咱ㄟ人生 因为伊开始认真 她的眼睛 像是一幅翠绿的风景 咱ㄟ感情 越唱放越深”,最后这四句,一句国语一句台语,好像代表着截然不同个性的两人,非常深刻的点出同时爱上一个女生的心情。


资源编码

  1. General
  2. Complete name                    : E:\周杰伦\魔杰座KTV\[z.JayCJ.com]流浪诗人.mpg
  3. Format                           : MPEG-PS
  4. File size                        : 95.4 MiB
  5. Duration                         : 2mn 50s
  6. Overall bit rate                 : 4 686 Kbps

  7. Video
  8. ID                               : 224 (0xE0)
  9. Format                           : MPEG Video
  10. Format version                   : Version 2
  11. Format profile                   : Main@Main
  12. Format settings, BVOP            : Yes
  13. Format settings, Matrix          : Default
  14. Format settings, GOP             : M=3, N=12
  15. Duration                         : 2mn 50s
  16. Bit rate mode                    : Variable
  17. Bit rate                         : 4 144 Kbps
  18. Nominal bit rate                 : 6 000 Kbps
  19. Width                            : 720 pixels
  20. Height                           : 480 pixels
  21. Display aspect ratio             : 4:3
  22. Frame rate                       : 29.970 fps
  23. Standard                         : NTSC
  24. Color space                      : YUV
  25. Chroma subsampling               : 4:2:0
  26. Bit depth                        : 8 bits
  27. Scan type                        : Interlaced
  28. Scan order                       : Bottom Field First
  29. Compression mode                 : Lossy
  30. Bits/(Pixel*Frame)               : 0.400
  31. Stream size                      : 84.3 MiB (88%)

  32. Audio #1
  33. ID                               : 192 (0xC0)
  34. Format                           : MPEG Audio
  35. Format version                   : Version 1
  36. Format profile                   : Layer 2
  37. Duration                         : 2mn 50s
  38. Bit rate mode                    : Constant
  39. Bit rate                         : 224 Kbps
  40. Channel(s)                       : 2 channels
  41. Sampling rate                    : 48.0 KHz
  42. Compression mode                 : Lossy
  43. Stream size                      : 4.56 MiB (5%)

  44. Audio #2
  45. ID                               : 193 (0xC1)
  46. Format                           : MPEG Audio
  47. Format version                   : Version 1
  48. Format profile                   : Layer 2
  49. Duration                         : 2mn 50s
  50. Bit rate mode                    : Constant
  51. Bit rate                         : 224 Kbps
  52. Channel(s)                       : 2 channels
  53. Sampling rate                    : 48.0 KHz
  54. Compression mode                 : Lossy
  55. Stream size                      : 4.56 MiB (5%)

复制代码


资源下载

周杰伦流浪诗人扬声高清KTV下载

本资源由百度网盘、迅雷下载、旋风分享、360云盘提供下载支持

游客,如果您要查看本帖隐藏内容请回复开通VIP全站免回复下载。


本帖子中包含更多资源

您需要 登录 才可以下载或查看,没有帐号?注册超级帐号

x

评分

参与人数 1金钱 +1 收起 理由
chinse98745 + 1 很给力!

查看全部评分




上一篇:周杰伦 - 时光机[KTV/MPG/175M]
下一篇:周杰伦 - 乔克叔叔[KTV/MPG/145M]
回复

使用道具 举报

ann (Lv.4 叶惠美)发表于 2016-3-18 11:40:56
谢谢楼主分享 么么哒
回复 支持 反对

使用道具 举报

颓废是另一种美 (Lv.6 十一月的萧邦)发表于 2016-3-24 22:50:04
谢谢楼主分享
回复 支持 反对

使用道具 举报

颓废是另一种美 (Lv.6 十一月的萧邦)发表于 2016-3-24 22:50:20
谢谢楼主分享
回复 支持 反对

使用道具 举报

大胡儿 (Lv.3 八度空间)发表于 2016-6-28 17:41:57
感谢分享周杰伦&杨瑞代的流浪诗人KTV
回复 支持 反对

使用道具 举报

qianlixx (Lv.2 范特西)发表于 2016-6-28 22:42:13
流浪诗人流浪诗人流浪诗人流浪诗人流浪诗人流浪诗人流浪诗人流浪诗人
回复 支持 反对

使用道具 举报

dz5220258 (Lv.1 Jay)发表于 2016-7-3 00:48:15
超喜欢,终于找到了!
回复 支持 反对

使用道具 举报

andy8722 (Lv.2 范特西)发表于 2016-7-4 10:40:33
楼主好人啊
回复 支持 反对

使用道具 举报

chai891102 (Lv.4 叶惠美)发表于 2016-8-11 18:55:46
很好听,谢谢分享
回复 支持 反对

使用道具 举报

abcabcabc (Lv.6 十一月的萧邦)发表于 2016-10-4 19:43:29
RE: 周杰伦&杨瑞代 - 流浪诗人[KTV/MPG/95M] [修改]
回复 支持 反对

使用道具 举报

您需要登录后才可以回帖 登录 | 注册超级帐号

本版积分规则

快速回复 返回顶部 返回列表