找回密码
 注册超级帐号

QQ登录

只需一步,快速开始

搜索

本文来自

周杰伦高清KTV下载

周杰伦高清KTV下载

人已关注

周杰伦DVD级别高清KTV下载

今日热帖

[DVD] 周杰伦 - 自导自演[KTV/MPG/206M]

[复制链接]

已抛锚 成长值: 559

5208 K歌之王 VIP会员资源区版主)发表于 2016-3-20 21:33:23
本帖最后由 K歌之王 于 2016-3-20 21:36 编辑

资源截图




歌曲介绍

自导自演》MV中的超级跑车是2009年在上海车展时发表的概念车,由于是概念车且没有量产,所以只在《自导自演》的MV中出境过 。MV描述了一段背叛的爱情,周杰伦在剧中跟踪偷吃女友,并请来好友黄怀晨饰演第三者。[6]  男主角周杰伦跟踪女主角的出轨,一路上紧张的气氛让人误以为男生是否要报复,但事实上没有,后来男主角跟踪到女主角与第三者用餐的餐厅,周杰伦发现女生手指上的定情对戒不见了,他将自己的定情戒拿起,套在红酒瓶上,再请服务生送到正与第三者用餐的女生面前,女生看到红酒与戒指,站起来搜寻,却只看到周杰伦离去的背影。


资源编码

  1. General
  2. Complete name                    : E:\周杰伦\KTV4\[z.JayCJ.com]自导自演(KTV).mpg
  3. Format                           : MPEG-PS
  4. File size                        : 206 MiB
  5. Duration                         : 4mn 12s
  6. Overall bit rate                 : 6 858 Kbps

  7. Video
  8. ID                               : 224 (0xE0)
  9. Format                           : MPEG Video
  10. Format version                   : Version 2
  11. Format profile                   : Main@Main
  12. Format settings, BVOP            : Yes
  13. Format settings, Matrix          : Default
  14. Format settings, GOP             : M=3, N=15
  15. Duration                         : 4mn 12s
  16. Bit rate mode                    : Constant
  17. Bit rate                         : 6 000 Kbps
  18. Width                            : 720 pixels
  19. Height                           : 480 pixels
  20. Display aspect ratio             : 4:3
  21. Frame rate                       : 29.970 fps
  22. Standard                         : NTSC
  23. Color space                      : YUV
  24. Chroma subsampling               : 4:2:0
  25. Bit depth                        : 8 bits
  26. Scan type                        : Interlaced
  27. Scan order                       : Top Field First
  28. Compression mode                 : Lossy
  29. Bits/(Pixel*Frame)               : 0.579
  30. Stream size                      : 179 MiB (87%)

  31. Audio #1
  32. ID                               : 192 (0xC0)
  33. Format                           : MPEG Audio
  34. Format version                   : Version 1
  35. Format profile                   : Layer 2
  36. Duration                         : 4mn 12s
  37. Bit rate mode                    : Constant
  38. Bit rate                         : 384 Kbps
  39. Channel(s)                       : 2 channels
  40. Sampling rate                    : 44.1 KHz
  41. Compression mode                 : Lossy
  42. Delay relative to video          : -67ms
  43. Stream size                      : 11.5 MiB (6%)

  44. Audio #2
  45. ID                               : 193 (0xC1)
  46. Format                           : MPEG Audio
  47. Format version                   : Version 1
  48. Format profile                   : Layer 2
  49. Duration                         : 4mn 12s
  50. Bit rate mode                    : Constant
  51. Bit rate                         : 384 Kbps
  52. Channel(s)                       : 2 channels
  53. Sampling rate                    : 44.1 KHz
  54. Compression mode                 : Lossy
  55. Delay relative to video          : -67ms
  56. Stream size                      : 11.5 MiB (6%)

复制代码


资源下载

周杰伦自导自演扬声高清KTV下载

本资源由百度网盘、旋风分享、360云盘提供下载支持

游客,如果您要查看本帖隐藏内容请回复开通VIP全站免回复下载。


本帖子中包含更多资源

您需要 登录 才可以下载或查看,没有帐号?注册超级帐号

x

评分

参与人数 1金钱 +1 收起 理由
wildwest + 1 很给力!

查看全部评分




上一篇:周杰伦 - 稻香[KTV/MPG/126M]
下一篇:周杰伦 - 雨下一整晚[KTV/MPG/200M]
回复

使用道具 举报

颓废是另一种美 (Lv.6 十一月的萧邦)发表于 2016-3-24 19:11:53
谢谢楼主分享
回复 支持 反对

使用道具 举报

zimingww (Lv.2 范特西)发表于 2016-3-28 20:11:04
飞机上的分布毫安时
回复 支持 反对

使用道具 举报

席小9 (Lv.4 叶惠美)发表于 2016-4-23 23:28:37
周杰伦自导自演扬声高清K
回复 支持 反对

使用道具 举报

大胡儿 (Lv.3 八度空间)发表于 2016-6-28 15:25:29
感谢分享周董自导自演的KTV
回复 支持 反对

使用道具 举报

cccronaldo (Lv.2 范特西)发表于 2016-9-10 10:23:01
哎呦不错哦
回复 支持 反对

使用道具 举报

abcabcabc (Lv.6 十一月的萧邦)发表于 2016-9-29 11:33:45
周杰伦 - 自导自演[KTV/MPG/206M] [修改]
回复 支持 反对

使用道具 举报

chai891102 (Lv.4 叶惠美)发表于 2016-10-4 14:27:00
很不错哦,感谢
回复 支持 反对

使用道具 举报

xinyu123 (Lv.3 八度空间)发表于 2016-11-28 20:44:48
感谢分享周董自导自演的KTV
回复 支持 反对

使用道具 举报

您需要登录后才可以回帖 登录 | 注册超级帐号

本版积分规则

快速回复 返回顶部 返回列表