找回密码
 注册超级帐号

QQ登录

只需一步,快速开始

搜索

本文来自

周杰伦高清KTV下载

周杰伦高清KTV下载

人已关注

周杰伦DVD级别高清KTV下载

今日热帖

[DVD] 周杰伦 - 嘻哈空姐[KTV/MPG/112M]

[复制链接]

已抛锚 成长值: 559

304512 K歌之王 VIP会员资源区版主)发表于 2016-3-20 21:51:42

资源截图




歌曲介绍

嘻哈空姐》的MV由邝盛执导,为配合MV拍摄还特意搭建了未来感座舱的场景。这支MV拍摄成本达130万新台币,周杰伦在MV中以一身制服装扮出镜,扮演“嘻哈机长”,嫩模扮成空姐。周杰伦扮演的“嘻哈机长”让空姐进行贴身安全检查,热舞挑逗,依然坐怀不乱,现场有工作人员开玩笑表示如果真有这么一家嘻哈航空公司,航班一定会满座。


资源编码

  1. General
  2. Complete name                    : E:\周杰伦\KTV3\[z.JayCJ.com]嘻哈空姐(KTV).mpg
  3. Format                           : MPEG-PS
  4. File size                        : 113 MiB
  5. Duration                         : 2mn 48s
  6. Overall bit rate                 : 5 609 Kbps
  7. Writing library                  : encoded by TMPGEnc (ver. 2.524.63.181)

  8. Video
  9. ID                               : 224 (0xE0)
  10. Format                           : MPEG Video
  11. Format version                   : Version 2
  12. Format profile                   : Main@Main
  13. Format settings, BVOP            : Yes
  14. Format settings, Matrix          : Default
  15. Duration                         : 2mn 48s
  16. Bit rate mode                    : Constant
  17. Bit rate                         : 5 000 Kbps
  18. Width                            : 720 pixels
  19. Height                           : 480 pixels
  20. Display aspect ratio             : 4:3
  21. Frame rate                       : 29.970 fps
  22. Standard                         : NTSC
  23. Color space                      : YUV
  24. Chroma subsampling               : 4:2:0
  25. Bit depth                        : 8 bits
  26. Scan type                        : Interlaced
  27. Scan order                       : Bottom Field First
  28. Compression mode                 : Lossy
  29. Bits/(Pixel*Frame)               : 0.483
  30. Stream size                      : 100 MiB (89%)
  31. Writing library                  : TMPGEnc 2.524.63.181

  32. Audio #1
  33. ID                               : 192 (0xC0)
  34. Format                           : MPEG Audio
  35. Format version                   : Version 1
  36. Format profile                   : Layer 2
  37. Duration                         : 2mn 48s
  38. Bit rate mode                    : Constant
  39. Bit rate                         : 256 Kbps
  40. Channel(s)                       : 2 channels
  41. Sampling rate                    : 48.0 KHz
  42. Compression mode                 : Lossy
  43. Stream size                      : 5.15 MiB (5%)

  44. Audio #2
  45. ID                               : 193 (0xC1)
  46. Format                           : MPEG Audio
  47. Format version                   : Version 1
  48. Format profile                   : Layer 2
  49. Duration                         : 2mn 48s
  50. Bit rate mode                    : Constant
  51. Bit rate                         : 256 Kbps
  52. Channel(s)                       : 2 channels
  53. Sampling rate                    : 48.0 KHz
  54. Compression mode                 : Lossy
  55. Stream size                      : 5.15 MiB (5%)

复制代码


资源下载

周杰伦嘻哈空姐扬声高清KTV下载

本资源由百度网盘、旋风分享、360云盘提供下载支持

游客,如果您要查看本帖隐藏内容请回复开通VIP全站免回复下载。


本帖子中包含更多资源

您需要 登录 才可以下载或查看,没有帐号?注册超级帐号

x

评分

参与人数 1金钱 +1 收起 理由
wildwest + 1 很给力!

查看全部评分




上一篇:周杰伦 - 雨下一整晚[KTV/MPG/200M]
下一篇:周杰伦 - 我落泪情绪零碎[KTV/MPG/208M]
回复

使用道具 举报

abcabcabc (Lv.6 十一月的萧邦)发表于 2016-9-28 15:18:09
周杰伦 - 嘻哈空姐[KTV/MPG/112M] [修改]
回复 支持 反对

使用道具 举报

zimingww (Lv.2 范特西)发表于 2016-3-28 20:12:22
f打算放大师傅水电费很积极推进给你v
回复 支持 反对

使用道具 举报

大胡儿 (Lv.3 八度空间)发表于 2016-6-28 15:31:11
感谢分享嘻哈空姐KTV
回复 支持 反对

使用道具 举报

颓废是另一种美 (Lv.6 十一月的萧邦)发表于 2016-3-24 19:02:07
谢谢楼主分享
回复 支持 反对

使用道具 举报

颓废是另一种美 (Lv.6 十一月的萧邦)发表于 2016-3-24 19:02:14
谢谢楼主分享
回复 支持 反对

使用道具 举报

颓废是另一种美 (Lv.6 十一月的萧邦)发表于 2016-3-24 19:03:01
谢谢楼主分享
回复 支持 反对

使用道具 举报

LEEE (Lv.6 十一月的萧邦)发表于 2016-3-25 00:45:12

谢谢楼主分享
回复 支持 反对

使用道具 举报

LEEE (Lv.6 十一月的萧邦)发表于 2016-3-25 00:45:18

谢谢楼主分享
回复 支持 反对

使用道具 举报

815208129 (Lv.3 八度空间)发表于 2016-4-8 17:27:50
感谢楼主的分享
回复 支持 反对

使用道具 举报

1234554321 (Lv.2 范特西)发表于 2016-8-22 16:30:44
让违规燃放
回复 支持 反对

使用道具 举报

您需要登录后才可以回帖 登录 | 注册超级帐号

本版积分规则

快速回复 返回顶部 返回列表